实时搜索: genie日文版mv中男演员是谁

genie日文版mv中男演员是谁

325条评论 2175人喜欢 5805次阅读 640人点赞
感谢万分 速度啊 急需 , 就是在军舰上唱的 一定要高清的 谢谢~~~~ , 日文 韩文我都想要
我比较贪心不好意思
哈哈~
谢谢了 , 邮箱是:115656691@qq.com 谢谢 ...

求少女时代 genie 天台飞机场版 高清MV 有的朋友发过来 谢谢了 邮箱是317398658@qq.com: Genie MBC音乐中心现场版 09_07_18
已发, 望采纳,谢谢!

求少女时代_genie_mv(三星3d电视演示版)(demo_version) 最好是1080的 邮箱594948505@qq.com: 给你发了一个115地址,你看看是不是!

求少女时代Genie高清MV下载:   呵呵 你很幸运 我这里有原封TP格式的 1920X1200分辨率,以下是视频参数

  F:\123\Show.Music.Core.E174.1080i.HDTV.MPEG2 少....tp
  General #C11
  ID : C11
  Complete name : F:\123\Show.Music.Core.E174.1080i.HDTV.MPEG2 少....tp
  Format : MPEG-TS
  File size : 483 MiB
  Duration : 3mn 28s
  Start time : UTC 2009-07-18 08:03:25
  End time : UTC 2009-07-18 08:06:53
  Overall bit rate : 19.4 Mbps
  Video #17
  ID : 17 (0x11)
  Menu ID : 1 (0x1)
  Format : MPEG Video
  Format version : Version 2
  Format profile : Main@High
  Format settings, Matrix : Default
  Duration : 3mn 28s
  Bit rate mode : Variable
  Bit rate : 17.6 Mbps
  Nominal bit rate : 17.4 Mbps
  Width : 1 920 pixels
  Height : 1 080 pixels
  Display aspect ratio : 16:9
  Frame rate : 29.970 fps
  Standard : Component
  Colorimetry : 4:2:0
  Scan type : Interlaced
  Scan order : Top Field First
  Bits/(Pixel*Frame) : 0.283
  Stream size : 439 MiB (91%)
  Audio #20
  ID : 20 (0x14)
  Menu ID : 1 (0x1)
  Format : AC-3
  Format/Info : Audio Coding 3
  Duration : 3mn 28s
  Bit rate mode : Constant
  Bit rate : 448 Kbps
  Channel(s) : 2 channels
  Channel positions : L R
  Sampling rate : 48.0 KHz
  Video delay : -466ms
  Stream size : 11.2 MiB (2%)
  Language : Korean

  439M 要的话留个邮箱给我 最好QQ邮箱 中转比较快

genie 日文版MV中男演员是谁: 中文译名:朴灿烈(勇)
生日:1992年11月27日
星座:射手座
所属公司:SM公司
经历:2008年东方神起UCC广告;少女时代日本出道曲"Genie"MV,等。

Genie"MV中的男主人公是现正上高中三年级的朴灿烈(勇)
是在之前2008年"智能模特大赛"中获得银奖并正在SM娱乐旗下准备出道的练习生
在出道之前就出演过东方神起唱的UCC"HaHaHa Song"等
现今都拥有歌迷会的比较有名的SM练习生之一
网民们正预测"就像F(x)的Krystal出演了SHINee的MV以后立刻出道一样朴灿烈(勇)也会在不久后出道"

少女时代 Genie 1080P 左右格式 3DMV 求下载地址,论坛也可以。: [左右格式] 1080P少女时代 Genie 真正的3DMV 美女从屏幕里走出来
1080P少女时代 Genie 真正的3DMV 美女从屏幕里走出来
名称:少女时代-Genie
内容:少女时代新版GenieMV——大腿帮再度出击
格式:mkv封装
3D格式:左右3D格式
分辨率:1080P
大小:928M

cnliti立体中国 你到这儿去下载,我刚找到的……

谁有少女时代的Gee Genie 重逢的世界 Chocolate的1080P的高清MV 有的可以发到我的QQ吗? QQ:1226137360: 楼主我给你网址,很齐全的。http://hi.baidu.com/heelkk/blog/category/%C9%D9%C5%AE%CA%B1%B4%FA%20%BA%CF%BC%AF

求少女时代的GEE,GENIE 日文及hoot ,inter visual dream MV打包: 已发送 请注意查收 你要的日文的由于不是高清的没有给你发送 其他两个是1080P的

少女时代Genie MV里面的这个女的是谁?: 林允儿~ 少时门面

  • 2017上海几个区

    iphonese的拍照能力和小米5比 谁更好: 这要看前置摄像头还是后置摄像头,前置摄像头iPhoneSE和iPhone5s是一致的,后置摄像头iPhonSE和iPhone6s是一样的。前置摄像头指的就是自拍。如果比较前置摄像头,小米5胜如果比较后置摄像头,iPh...

    244条评论 2280人喜欢 5099次阅读 836人点赞
  • 2016dnf现在的策划是谁

    苹果5s 语音唤醒 Siri 是那个版本????不插充电器,不按houb按和关机按键,直接用语音唤醒。: Siri在有网络情况使用,锁屏后按中键说嘿Siri。详情打开设置,再打开通用里的Siri仔细看看 ...

    234条评论 1325人喜欢 5979次阅读 862人点赞
  • 2022亚运会在杭州哪里举办

    苹果5s充电时一直重启怎么办: 一、设置——通用——还原——“抹除所有内容和设置”二、也可以使用itunes恢复系统。1.安装iTunes。启动iTunes。2.插入iPhone,按住Power(开关机键)和Home(下面的圆按键)10秒,等iPh...

    473条评论 4837人喜欢 6087次阅读 607人点赞
  • 32寸多少

    为啥我的苹果5s信号这么差: 1、没有信号或信号比较差,有可能是由于存在其他客观条件导致。因为信号在传播过程中会受到地形、地貌、高楼等各种因素的影响,如果您所在的位置是比较封闭的地方,信号将会受到影响。处理方法如下:【1】将手机重新开关机再次尝试...

    437条评论 5403人喜欢 2137次阅读 909人点赞
  • 200微升是多少

    220v转110v变压器哪家好以及选购建议: 你好,损耗中的空载损耗,即铁损,主要发生在变压器铁芯叠片内,主要是因交变的磁力线通过铁芯产生磁滞及涡流而带来的损耗。最早用于变压器铁芯的材料是易于磁化和退磁的软熟铁,为了克服磁回路中由周期性磁化所产生的磁阻损失和铁芯...

    371条评论 2986人喜欢 3115次阅读 485人点赞